Tsubasa Chronicle

Tsubasa Chronicle – 06

During an excavation at the mysterious ruins in Clow Country, Syaoran discovers his childhood friend Princess Sakura appear on the site with wings that disperse into many feathers.
As the feather’s disappear to different dimensions, so does Sakura’s memory. In attempts to save Sakura’s life and restore her memory, Syaoran travels through to another world to find a solution.
There’s only one thing left he can do. Travel through to different dimensions to collect Sakura’s feathers.
Helping out with the quest is Kurogane, an exiled ninja from Japan Country who wishes to return to his world, the runaway magician, Fay, who desires to jump between each world never to return to his own and the white meat-bun shaped creature, Mokona.

Watch Online

Download Links:

Mega – Download v2

Nyaa.Se – Torrent v2

Anidex – Torrent v2

2 thoughts on “Tsubasa Chronicle – 06

  1. Hello!
    I am enjoying your beautiful encode. I was preparing to enjoy episode 6 but it appears the subtitles were not muxed in. Could you put the .ass someplace?

    I got the torrent from Anidex. I haven’t downloaded to be sure but seems DDL on Mega is the same.

    [Wien-Subs] Tsubasa Chronicle – 06.mkv
    Media info:
    Unique ID : 239000399712884771902543272395131830770 (0xB3CDCD7AA6AA7C39A18CCD49AA53C1F2)
    Complete name : \Tsubasa Chronicle\[Wien-Subs] Tsubasa Chronicle – 06.mkv
    Format : Matroska
    Format version : Version 4 / Version 2
    File size : 902 MiB
    Duration : 25mn 1s
    Overall bit rate : 5 039 Kbps
    Encoded date : UTC 2016-02-27 16:16:37
    Writing application : mkvmerge v8.4.0 (‘A better way to fly’) 64bit
    Writing library : libebml v1.3.1 + libmatroska v1.4.2

    Video
    ID : 1
    Format : AVC
    Format/Info : Advanced Video Codec
    Format profile : High [email protected]
    Format settings, CABAC : Yes
    Format settings, ReFrames : 6 frames
    Codec ID : V_MPEG4/ISO/AVC
    Duration : 25mn 0s
    Bit rate : 4 400 Kbps
    Width : 1 920 pixels
    Height : 1 080 pixels
    Display aspect ratio : 16:9
    Frame rate mode : Constant
    Frame rate : 23.976 (24000/1001) fps
    Color space : YUV
    Chroma subsampling : 4:2:0
    Bit depth : 10 bits
    Scan type : Progressive
    Bits/(Pixel*Frame) : 0.089
    Stream size : 787 MiB (87%)
    Writing library : x264 core 148 r2665 a01e339
    Encoding settings : cabac=1 / ref=6 / deblock=1:1:1 / analyse=0x3:0x113 / me=umh / subme=10 / psy=1 / psy_rd=0.40:0.00 / mixed_ref=1 / me_range=32 / chroma_me=1 / trellis=2 / 8x8dct=1 / cqm=0 / deadzone=21,11 / fast_pskip=1 / chroma_qp_offset=-2 / threads=9 / lookahead_threads=1 / sliced_threads=0 / nr=0 / decimate=1 / interlaced=0 / bluray_compat=0 / constrained_intra=0 / bframes=5 / b_pyramid=2 / b_adapt=1 / b_bias=0 / direct=1 / weightb=1 / open_gop=0 / weightp=2 / keyint=250 / keyint_min=23 / scenecut=40 / intra_refresh=0 / rc_lookahead=40 / rc=crf / mbtree=1 / crf=17.0 / qcomp=0.60 / qpmin=0 / qpmax=81 / qpstep=4 / ip_ratio=1.40 / aq=3:1.10
    Default : Yes
    Forced : No

    Audio
    ID : 2
    Format : AC-3
    Format/Info : Audio Coding 3
    Mode extension : CM (complete main)
    Format settings, Endianness : Big
    Codec ID : A_AC3
    Duration : 25mn 1s
    Bit rate mode : Constant
    Bit rate : 640 Kbps
    Channel(s) : 2 channels
    Channel positions : Front: L R
    Sampling rate : 48.0 KHz
    Frame rate : 31.250 fps (1536 spf)
    Compression mode : Lossy
    Stream size : 115 MiB (13%)
    Language : Japanese
    Default : Yes
    Forced : No

Leave a Reply

Your email address will not be published.